wordpress themes.

Видео запись вещания Лыбидь ТВ

По просьбам подписчиков ленты Лыбидь ТВ в социальной сети Вконтакте выкладываем фрагмент видео записи вещания Лыбидь ТВ.

Параметры потока Лыбидь ТВ:

General
Format : MPEG-TS
Format profile : No PAT/PMT
File size : 21.3 MiB
Duration : 1mn 7s
Overall bit rate : 2 628 Kbps
Video #1130
ID : 1130 (0x46A)
Format : AVC
Format/Info : Advanced Video Codec
Format profile : Main@L3.0
Format settings, CABAC : Yes
Format settings, ReFrames : 4 frames
Duration : 1mn 7s
Bit rate : 2 350 Kbps
Width : 704 pixels
Height : 576 pixels
Display aspect ratio : 4:3
Frame rate : 25.000 fps
Resolution : 24 bits
Colorimetry : 4:2:0
Scan type : Interlaced
Scan order : Top Field First
Bits/(Pixel*Frame) : 0.232
Stream size : 19.0 MiB (89%)
colour_primaries : BT.470-6 System B, BT.470-6 System G, BT.601-6 625, BT.1358 625, BT.1700 625 PAL, BT.1700 625 SECAM
transfer_characteristics : BT.470-6 System B, BT.470-6 System G
matrix_coefficients : BT.470-6 System B, BT.470-6 System G, BT.601-6 625, BT.1358 625, BT.1700 625 PAL, BT.1700 625 SECAM, IEC 61966-2-4 601
Audio #1131
ID : 1131 (0x46B)
Format : MPEG Audio
Format version : Version 1
Format profile : Layer 2
Duration : 1mn 7s
Bit rate mode : Constant
Bit rate : 96.0 Kbps
Channel(s) : 1 channel
Sampling rate : 48.0 KHz
Resolution : 16 bits
Video delay : -1s 320ms
Stream size : 795 KiB (4%)

Оригинал записи с ресивера, смотреть KMP плеером 🙂 Видео файл

 

Авторство Google

3 комментария

  • Нужно еще выложить запись футбольного матча, чтоб доказать абонентам, что матчи не закодированы на момент трансляции со спутника, в отличии от Виасат — там прямые трансляции футбольных матчей закодированы и не доступны к просмотру.

  • Хотя-бы фильм какой нибудь показали.А то рекламу записали.Не правильно вы рекламируете своего провайдера.

  • Прошел июль. Запущено два транспондера, примерно по 25 каналов на каждом. Если зять калькулятор в руки и прикинуть скорость потока на один канал, то получится не 2440, всего то 600-700кбит на канал. Может обновить ролик, на отражающий более реальную картину? А то есть подозрение, что картинка сейчас в мыле. По крайней мере инфоканалы дают именно такое впечатление.

Ваш отзыв